<?xml version="1.0" standalone="no"?>
<!DOCTYPE svg PUBLIC "-//W3C//DTD SVG 1.1//EN" "http://www.w3.org/Graphics/SVG/1.1/DTD/svg11.dtd">
<svg xmlns="http://www.w3.org/2000/svg">
<defs >
<font id="Raleway" horiz-adv-x="475" ><font-face
    font-family="Raleway ExtraBold"
    units-per-em="1000"
    panose-1="2 11 9 3 3 1 1 6 0 3"
    ascent="940"
    descent="-234"
    alphabetic="0" />
<glyph unicode=" " glyph-name="space" horiz-adv-x="230" />
<glyph unicode="!" glyph-name="exclam" horiz-adv-x="309" d="M71 282L162 717H322L231 282H71ZM10 0L46 166H206L170 0H10Z" />
<glyph unicode="&quot;" glyph-name="quotedbl" horiz-adv-x="427" d="M96 498L145 726H280L231 498H96ZM276 498L325 726H460L411 498H276Z" />
<glyph unicode="#" glyph-name="numbersign" horiz-adv-x="708" d="M696 412H550L503 298H625L600 179H449L370 0H242L322 179H243L165 0H37L116 179H10L35 298H170L218 412H106L130 522H269L352 710H480L396 522H475L557 710H685L601 522H720L696 412ZM376 298L423
412H345L297 298H376Z" />
<glyph unicode="$" glyph-name="dollar" horiz-adv-x="620" d="M529 502Q527 505 516 514T486 534T443 554T392 568L364 433L394 424Q432 412 463 398T517 363T551 316T563 252Q563 185 539 137T475 58T385 12T282 -7L258 -123H188L213 -6Q149 0 90 22T-14 80L88
223Q90 218 104 207T140 183T193 159T256 142L284 273L238 289Q166 315 131 350T95 444Q95 504 117 551T177 633T264 688T367 714L388 815H456L435 714Q495 708 544 685T629 638L529 502ZM379 203Q379 222 365 234T326 257L301 140Q343 142 361 159T379 203ZM275
500Q275 482 287 471T322 449L347 569Q312 566 294 548T275 500Z" />
<glyph unicode="%" glyph-name="percent" horiz-adv-x="790" d="M223 411Q193 411 168 421T125 448T98 489T88 540Q88 576 105 609T149 666T213 705T288 720Q318 720 343 710T386 683T413 642T423 591Q423 555 406 522T362 465T298 426T223 411ZM239 489Q252 489
265 497T288 518T305 548T312 584Q312 609 301 625T272 642Q259 642 246 634T223 613T206 583T199 547Q199 523 210 506T239 489ZM525 -10Q495 -10 470 0T427 27T400 68T390 119Q390 155 407 188T451 245T515 284T591 299Q621 299 645 289T688 262T715 221T725
170Q725 134 709 101T664 44T600 5T525 -10ZM542 68Q555 68 567 76T590 97T607 127T614 163Q614 187 603 204T574 221Q561 221 548 213T525 192T508 162T501 126Q501 101 512 85T542 68ZM52 56L390 380L703 719L761 655L435 340L110 -9L52 56Z" />
<glyph unicode="&amp;" glyph-name="ampersand" horiz-adv-x="712" d="M395 52Q347 21 298 6T202 -10Q155 -10 120 5T61 44T25 101T13 170Q13 207 25 238T60 295T110 344T172 386Q149 424 138 453T127 515Q127 560 146 597T197 662T270 704T356 719Q419 719 468
685T535 579L423 528Q413 566 391 584T344 603Q319 603 298 586T277 542Q277 532 280 523T292 501T311 472T340 431L451 269Q468 301 480 337T498 416H682L667 305H596Q580 267 561 233T520 170L638 0H431L395 52ZM246 112Q268 112 291 119T337 140L240 284Q202
261 186 238T169 186Q169 149 191 131T246 112Z" />
<glyph unicode="&apos;" glyph-name="quotesingle" horiz-adv-x="247" d="M96 497L145 726H280L231 497H96Z" />
<glyph unicode="(" glyph-name="parenleft" horiz-adv-x="319" d="M31 265Q31 330 50 391T102 513T179 636T275 764L386 714Q339 654 302 595T237 481T196 373T181 273Q181 210 194 139T231 -2L101 -59Q86 -24 74 15T52 97T37 181T31 265Z" />
<glyph unicode=")" glyph-name="parenright" horiz-adv-x="318" d="M308 431Q308 363 288 299T233 174T155 55T64 -59L-40 -2Q2 55 38 107T100 211T142 315T157 425Q157 468 152 512T139 595T123 666T108 714L241 764Q269 682 288 596T308 431Z" />
<glyph unicode="*" glyph-name="asterisk" horiz-adv-x="346" d="M114 510L175 585L112 606L147 673L210 639L221 719H303L281 639L358 673L364 606L291 585L322 510L254 471L226 550L165 471L114 510Z" />
<glyph unicode="+" glyph-name="plus" horiz-adv-x="433" d="M393 419V291H298V187H154V291H60V419H154V523H298V419H393Z" />
<glyph unicode="," glyph-name="comma" horiz-adv-x="242" d="M-20 -135L40 2H-9L25 163H160L125 2L50 -135H-20Z" />
<glyph unicode="-" glyph-name="hyphen" horiz-adv-x="400" d="M32 203L63 347H357L326 203H32Z" />
<glyph unicode="." glyph-name="period" horiz-adv-x="238" d="M-9 0L25 163H156L121 0H-9Z" />
<glyph unicode="/" glyph-name="slash" horiz-adv-x="729" d="M782 710L149 0H-27L606 710H782Z" />
<glyph unicode="0" glyph-name="zero" horiz-adv-x="595" d="M231 -10Q186 -10 151 7T90 56T51 130T37 225Q37 302 64 370T136 488T239 568T361 597Q405 597 441 580T502 531T540 456T554 361Q554 284 527 216T456 98T353 19T231 -10ZM262 137Q287 137 310 153T351
198T379 264T390 344Q390 392 375 421T330 450Q304 450 280 433T238 388T210 321T199 242Q199 194 215 166T262 137Z" />
<glyph unicode="1" glyph-name="one" horiz-adv-x="503" d="M28 144H163L218 399Q207 387 186 375T141 352T92 335T49 328L80 476Q95 476 121 487T175 513T224 545T254 571H417L327 144H448L417 0H-2L28 144Z" />
<glyph unicode="2" glyph-name="two" horiz-adv-x="563" d="M-28 0Q-18 47 -3 84T35 153T92 209T173 258Q226 284 261 301T316 333T345 361T354 392Q354 415 340 428T296 442Q260 442 226 422T157 368L81 486Q101 504 130 521T196 551T272 573T354 581Q445 581
491 543T537 440Q537 400 525 370T491 316T443 273T387 237Q356 220 319 197T254 144H486L456 0H-28V0Z" />
<glyph unicode="3" glyph-name="three" horiz-adv-x="549" d="M156 -147Q13 -147 -52 -58L57 56Q77 28 105 14T179 -1Q244 -1 273 25T303 101Q303 136 276 154T190 173H162L186 288H218Q275 288 311 315T347 386Q347 412 331 425T285 439Q248 439 213 420T147
364L71 480Q92 501 121 519T184 549T256 569T332 576Q423 576 475 536T527 429Q527 395 514 363T479 305T428 261T366 237Q413 228 439 189T466 95Q466 41 444 -4T380 -80T282 -129T156 -147Z" />
<glyph unicode="4" glyph-name="four" horiz-adv-x="561" d="M218 10H-39L-8 153L388 571H498L409 154H493L462 10H378L349 -127H189L218 10ZM267 154L305 331L151 154H267Z" />
<glyph unicode="5" glyph-name="five" horiz-adv-x="536" d="M153 -149Q79 -149 27 -118T-45 -31L65 68Q84 33 116 12T184 -9Q208 -9 229 0T265 25T290 63T299 112Q299 145 282 165T234 185Q209 185 186 173T147 139H9Q27 181 49 239T96 358T142 475T180 571H516L485
425H265L222 304Q228 311 244 316T286 322Q328 322 361 309T418 271T454 214T467 139Q467 77 443 24T375 -67T275 -127T153 -149Z" />
<glyph unicode="6" glyph-name="six" horiz-adv-x="592" d="M235 -10Q141 -10 91 53T41 229Q41 330 67 419T142 574T258 678T406 716Q469 716 516 689T596 611L484 509Q467 541 438 559T374 577Q320 577 280 535T222 416Q247 443 280 458T352 473Q395 473 430
459T491 419T530 358T544 281Q544 222 519 169T450 77T352 14T235 -10ZM264 125Q286 125 308 136T348 165T377 208T388 259Q388 297 367 322T311 347Q288 347 266 337T226 308T199 267T188 217Q188 179 209 152T264 125Z" />
<glyph unicode="7" glyph-name="seven" horiz-adv-x="563" d="M335 438H58L89 584H618L135 -126H-46L335 438Z" />
<glyph unicode="8" glyph-name="eight" horiz-adv-x="587" d="M226 -9Q182 -9 144 4T78 43T35 103T19 181Q19 219 31 250T63 306T105 349T149 379Q127 393 115 421T102 482Q102 536 129 578T197 650T287 694T379 710Q414 710 448 699T511 667T556 614T573 540Q573
514 564 489T541 443T507 406T469 379Q492 361 510 327T529 248Q529 192 504 145T436 64T339 10T226 -9ZM257 136Q278 136 298 144T333 167T357 200T367 243Q367 277 347 295T295 313Q274 313 254 305T219 283T195 250T186 208Q186 176 206 156T257 136ZM320 433Q334
433 349 438T377 454T398 480T407 515Q407 539 391 554T349 569Q332 569 317 563T290 546T271 520T264 488Q264 461 281 447T320 433Z" />
<glyph unicode="9" glyph-name="nine" horiz-adv-x="574" d="M169 -155Q106 -155 58 -128T-22 -50L90 52Q107 20 136 2T201 -16Q254 -16 294 26T353 145Q327 118 294 103T223 88Q179 88 144 102T83 142T45 203T31 280Q31 339 56 392T124 484T222 547T339 571Q433
571 483 508T533 332Q533 231 507 142T432 -13T317 -117T169 -155ZM263 214Q286 214 308 224T347 253T375 294T386 344Q386 382 365 409T310 436Q288 436 266 425T226 396T197 353T186 302Q186 264 207 239T263 214Z" />
<glyph unicode=":" glyph-name="colon" horiz-adv-x="269" d="M81 356L116 519H246L211 356H81ZM6 0L40 163H171L136 0H6Z" />
<glyph unicode=";" glyph-name="semicolon" horiz-adv-x="272" d="M82 356L116 519H247L212 356H82ZM-6 -135L54 2H5L40 163H174L139 2L64 -135H-6Z" />
<glyph unicode="&lt;" glyph-name="less" horiz-adv-x="552" d="M29 293L451 549V379L261 259L451 146V-33L29 217V293Z" />
<glyph unicode="=" glyph-name="equal" horiz-adv-x="488" d="M79 124V226H397V124H79ZM79 326V428H397V326H79Z" />
<glyph unicode="&gt;" glyph-name="greater" horiz-adv-x="552" d="M504 217L82 -33V146L272 259L82 379V549L504 293V217Z" />
<glyph unicode="?" glyph-name="question" horiz-adv-x="476" d="M92 245Q96 268 103 289T122 329T152 366T200 397Q234 414 261 429T307 460T336 493T347 534Q347 560 331 575T290 590Q272 590 257 583T228 565T204 541T185 518L97 590Q135 651 195 685T324 719Q355
719 385 710T439 682T476 633T491 561Q491 519 481 488T454 432T414 390T364 356Q341 342 318 331T275 308T241 281T223 245H92ZM42 0L74 150H205L173 0H42Z" />
<glyph unicode="@" glyph-name="at" horiz-adv-x="816" d="M582 53Q606 53 627 75T664 133T689 211T699 294Q699 348 682 393T633 472T555 523T450 542Q376 542 310 513T193 432T114 312T84 164Q84 107 99 61T144 -17T216 -67T312 -85Q350 -85 385 -76T465 -47L472
-106Q384 -146 299 -146Q235 -146 183 -125T95 -64T38 31T18 156Q18 251 55 333T153 475T296 569T466 603Q535 603 590 582T683 523T743 431T764 312Q764 258 750 200T708 94T641 15T552 -16Q517 -16 496 0T474 49Q474 60 476 64Q398 -5 320 -5Q283 -5 253 8T202
46T170 105T159 179Q159 236 180 287T236 378T316 441T411 465Q459 465 490 443T531 385L543 450H618L554 124Q552 116 551 107T550 91Q550 53 582 53ZM352 72Q394 72 425 98T474 167L493 289Q486 327 463 351T404 376Q377 376 350 362T302 322T267 263T253 190Q253
140 277 106T352 72Z" />
<glyph unicode="A" glyph-name="A" horiz-adv-x="641" d="M337 710H486L578 0H410L395 159H193L112 0H-57L337 710ZM392 272L372 523L242 272H392Z" />
<glyph unicode="B" glyph-name="B" horiz-adv-x="661" d="M155 710H534Q564 710 586 698T624 665T646 619T654 564Q654 534 645 504T618 448T575 399T517 364Q562 350 586 314T610 224Q610 167 587 125T526 56T438 14T333 0H4L155 710ZM363 139Q379 139 394 146T422
166T441 196T448 234Q448 260 436 277T402 294H230L198 139H363ZM403 423Q417 423 431 429T457 446T476 475T483 516Q483 542 471 556T440 570H289L258 423H403Z" />
<glyph unicode="C" glyph-name="C" horiz-adv-x="661" d="M297 -6Q234 -6 185 19T102 87T51 184T33 297Q33 346 47 396T88 492T153 579T238 649T340 696T456 714Q552 714 613 671T694 559L549 471Q544 499 532 517T501 547T462 563T421 568Q369 568 328 544T259
481T215 396T200 307Q200 273 208 243T233 190T275 154T332 140Q353 140 375 145T420 162T463 192T499 238L617 159Q593 120 556 89T476 37T386 5T297 -6Z" />
<glyph unicode="D" glyph-name="D" horiz-adv-x="693" d="M155 710H409Q478 710 529 689T614 630T664 543T681 434Q681 340 649 261T560 123T426 33T258 0H4L155 710ZM288 144Q338 144 379 165T449 224T495 309T511 410Q511 480 478 523T378 566H288L198 144H288Z" />
<glyph unicode="E" glyph-name="E" horiz-adv-x="576" d="M155 710H622L591 566H288L259 428H519L491 295H231L198 144H510L480 0H4L155 710Z" />
<glyph unicode="F" glyph-name="F" horiz-adv-x="552" d="M155 710H613L583 566H288L256 413H498L470 280H227L168 0H4L155 710Z" />
<glyph unicode="G" glyph-name="G" horiz-adv-x="704" d="M481 70Q433 32 388 14T291 -5Q234 -5 187 16T106 75T52 166T33 285Q33 373 68 451T163 588T299 681T458 715Q551 715 613 674T696 560L555 468Q542 516 506 542T421 569Q377 569 338 548T268 490T220
405T202 304Q202 269 211 239T237 187T279 153T336 141Q425 141 515 229L520 252H391L416 371H681L602 0H466L481 70Z" />
<glyph unicode="H" glyph-name="H" horiz-adv-x="721" d="M155 710H319L260 435H517L576 710H740L589 0H425L487 291H230L168 0H4L155 710Z" />
<glyph unicode="I" glyph-name="I" horiz-adv-x="300" d="M155 710H319L168 0H4L155 710Z" />
<glyph unicode="J" glyph-name="J" horiz-adv-x="483" d="M92 -11Q7 -11 -45 33L18 167Q25 159 53 147T123 135Q156 135 178 147T217 186T245 252T269 349L346 710H511L434 349Q417 268 395 202T335 88T239 15T92 -11Z" />
<glyph unicode="K" glyph-name="K" horiz-adv-x="653" d="M155 710H319L254 404L554 710H739L420 393L604 0H416L293 286L212 209L168 0H4L155 710Z" />
<glyph unicode="L" glyph-name="L" horiz-adv-x="563" d="M155 710H319L198 144H519L489 0H4L155 710Z" />
<glyph unicode="M" glyph-name="M" horiz-adv-x="825" d="M155 710H333L421 339L667 710H845L694 0H529L620 425L417 116H329L259 425L168 0H4L155 710Z" />
<glyph unicode="N" glyph-name="N" horiz-adv-x="729" d="M155 710H283L496 293L584 710H748L597 0H467L254 406L168 0H4L155 710Z" />
<glyph unicode="O" glyph-name="O" horiz-adv-x="733" d="M301 -6Q236 -6 186 18T102 84T51 179T33 291Q33 345 49 397T93 496T161 583T247 652T348 697T457 714Q521 714 571 689T654 623T705 528T723 417Q723 337 689 261T596 126T461 30T301 -6ZM333 140Q385
140 426 165T495 228T539 314T555 406Q555 439 547 468T523 519T482 555T423 568Q372 568 331 544T261 481T217 396T201 304Q201 271 209 242T233 190T274 154T333 140Z" />
<glyph unicode="P" glyph-name="P" horiz-adv-x="602" d="M155 710H444Q485 710 518 693T573 648T608 584T620 510Q620 459 598 409T539 319T452 254T346 229H216L168 0H4L155 710ZM366 372Q381 372 396 380T424 405T444 444T452 496Q452 532 437 549T402 566H288L247
372H366Z" />
<glyph unicode="Q" glyph-name="Q" horiz-adv-x="732" d="M472 36Q432 16 389 6T300 -5Q235 -5 186 19T102 85T50 179T32 291Q32 372 67 448T160 583T295 679T456 715Q521 715 570 690T654 624T705 528T722 417Q722 331 683 251T578 110L652 0H497L472 36ZM333
141Q365 141 396 152L311 280H464L497 230Q525 268 540 314T555 406Q555 439 547 468T523 520T482 556T423 569Q372 569 331 545T260 482T216 396T200 304Q200 272 208 243T232 191T274 155T333 141Z" />
<glyph unicode="R" glyph-name="R" horiz-adv-x="647" d="M4 0L155 710H460Q502 710 534 693T589 648T624 584T636 510Q636 473 625 437T593 369T544 309T481 264L572 0H387L309 229H216L168 0H4ZM383 372Q398 372 413 381T440 407T459 446T467 493Q467 526 453
546T419 566H288L247 372H383Z" />
<glyph unicode="S" glyph-name="S" horiz-adv-x="594" d="M244 -8Q169 -8 97 15T-27 80L75 223Q77 218 94 204T139 176T203 151T278 140Q326 140 346 157T366 203Q366 220 355 231T325 252T280 270T225 289Q153 315 118 350T82 444Q82 508 108 559T176 644T274
697T387 716Q423 716 456 709T518 691T571 666T616 638L516 502Q514 506 500 517T462 540T410 561T351 570Q309 570 286 552T262 500Q262 471 293 457T381 424Q419 412 450 398T504 363T539 316T551 252Q551 181 524 132T453 51T354 6T244 -8Z" />
<glyph unicode="T" glyph-name="T" horiz-adv-x="596" d="M273 566H70L100 710H669L639 566H437L316 0H152L273 566Z" />
<glyph unicode="U" glyph-name="U" horiz-adv-x="717" d="M293 -6Q228 -6 183 12T110 63T68 140T55 236Q55 290 67 347L145 710H309L231 347Q222 303 222 266Q222 239 227 216T245 176T276 150T324 140Q362 140 392 157T444 204T481 270T505 347L582 710H746L669
347Q653 273 622 209T543 97T434 22T293 -6Z" />
<glyph unicode="V" glyph-name="V" horiz-adv-x="644" d="M82 710H255L299 206L556 710H728L324 0H187L82 710Z" />
<glyph unicode="W" glyph-name="W" horiz-adv-x="1002" d="M76 710H254L306 188L408 379L368 709H518L536 482L650 709H801L618 379L641 188L914 710H1094L674 0H538L492 278L330 0H193L76 710Z" />
<glyph unicode="X" glyph-name="X" horiz-adv-x="625" d="M236 350L81 710H259L348 465L540 710H717L409 350L558 0H381L298 235L116 0H-62L236 350Z" />
<glyph unicode="Y" glyph-name="Y" horiz-adv-x="623" d="M213 244L77 710H255L324 384L535 710H713L375 242L324 0H160L213 244Z" />
<glyph unicode="Z" glyph-name="Z" horiz-adv-x="595" d="M-10 123L425 566H98L128 710H646L619 587L200 144H529L499 0H-36L-10 123Z" />
<glyph unicode="[" glyph-name="bracketleft" horiz-adv-x="322" d="M-4 -40L162 740H373L346 613H282L171 87H234L208 -40H-4Z" />
<glyph unicode="\" glyph-name="backslash" horiz-adv-x="632" d="M284 710L546 0H370L107 710H284Z" />
<glyph unicode="]" glyph-name="bracketright" horiz-adv-x="323" d="M-30 -40L-3 87H62L173 613H109L136 740H347L182 -40H-30Z" />
<glyph unicode="^" glyph-name="asciicircum" horiz-adv-x="608" d="M46 303L244 710H377L574 303H444L311 578L174 303H46Z" />
<glyph unicode="_" glyph-name="underscore" horiz-adv-x="441" d="M-44 -144L-14 0H326L296 -144H-44Z" />
<glyph unicode="`" glyph-name="grave" horiz-adv-x="260" d="M53 730H197L219 600L108 584L53 730Z" />
<glyph unicode="a" glyph-name="a" horiz-adv-x="634" d="M197 -10Q153 -10 119 6T60 50T24 118T11 203Q11 269 34 329T97 435T188 508T297 535Q348 535 384 509T434 439L452 522H613L539 180Q538 173 538 169T537 159Q537 136 562 135L534 0Q511 -5 495 -6T466
-8Q427 -8 404 7T381 59Q381 69 384 87Q347 38 298 14T197 -10ZM269 125Q299 125 330 144T384 198L407 308Q402 348 377 373T320 399Q293 399 268 385T223 347T192 293T180 229Q180 184 203 155T269 125Z" />
<glyph unicode="b" glyph-name="b" horiz-adv-x="619" d="M293 -10Q236 -10 199 15T148 87L130 0H-10L145 730H305L243 439Q275 483 322 509T421 535Q462 535 494 519T547 474T580 407T591 323Q591 254 566 194T500 88T405 16T293 -10ZM279 125Q307 125 333 138T379
174T411 227T423 291Q423 336 402 367T342 399Q308 399 274 373T216 308L192 198Q202 164 223 145T279 125Z" />
<glyph unicode="c" glyph-name="c" horiz-adv-x="548" d="M230 -10Q175 -10 134 7T66 55T25 126T11 211Q11 272 35 330T104 434T209 507T345 535Q433 535 484 497T552 396L387 349Q368 399 315 399Q289 399 264 386T220 351T189 297T177 229Q177 182 199 154T257
125Q283 125 308 139T350 177L496 129Q454 68 386 29T230 -10Z" />
<glyph unicode="d" glyph-name="d" horiz-adv-x="634" d="M197 -10Q153 -10 119 6T60 50T24 118T11 203Q11 269 34 329T97 435T188 508T297 535Q348 535 384 509T434 439L496 730H657L539 180Q538 173 538 169T537 159Q537 136 562 135L534 0Q511 -5 495 -6T466
-8Q428 -8 404 7T380 56Q380 68 384 87Q347 38 298 14T197 -10ZM269 125Q299 125 330 144T384 198L407 308Q402 348 377 373T320 399Q293 399 268 385T223 347T192 293T180 229Q180 184 203 155T269 125Z" />
<glyph unicode="e" glyph-name="e" horiz-adv-x="558" d="M232 -10Q181 -10 140 6T71 52T27 122T12 212Q12 278 38 337T110 440T217 509T350 535Q441 535 492 496T544 385Q544 299 466 255T232 211Q219 211 206 211T178 212Q178 159 197 132T261 105Q297 105 327
122T377 169L503 129Q482 98 452 73T387 29T312 0T232 -10ZM324 420Q279 420 247 389T196 310H232Q320 310 355 325T390 371Q390 394 372 407T324 420Z" />
<glyph unicode="f" glyph-name="f" horiz-adv-x="376" d="M98 361H35L61 482H124L133 525Q143 574 164 614T214 682T280 725T356 740Q417 740 482 709L427 589Q414 596 396 600T363 605Q309 605 294 531L283 482H398L372 361H258L136 -213H-24L98 361Z" />
<glyph unicode="g" glyph-name="g" horiz-adv-x="618" d="M160 -223Q79 -223 27 -196T-57 -118L47 -31Q67 -64 103 -83T185 -103Q212 -103 238 -95T286 -71T324 -28T348 36L358 87Q327 43 280 21T183 -2Q142 -2 111 14T57 58T24 123T12 205Q12 272 36 332T101
437T196 508T310 535Q365 535 401 510T454 439L473 525H612L508 36Q495 -24 464 -72T387 -153T283 -205T160 -223ZM267 125Q299 125 329 145T382 198L406 308Q400 350 375 374T318 399Q291 399 266 384T221 345T191 291T179 229Q179 184 202 155T267 125Z" />
<glyph unicode="h" glyph-name="h" horiz-adv-x="591" d="M145 730H305L243 437Q280 484 330 509T435 535Q471 535 494 525T532 499T552 460T558 414Q558 395 556 376T549 336L478 0H318L381 295Q383 306 384 315T385 334Q385 365 371 379T333 394Q321 394 305
388T273 369T241 339T214 301L150 0H-10L145 730Z" />
<glyph unicode="i" glyph-name="i" horiz-adv-x="268" d="M102 525H262L150 0H-10L102 525ZM145 730H305L274 585H114L145 730Z" />
<glyph unicode="j" glyph-name="j" horiz-adv-x="273" d="M-75 -202Q-113 -202 -145 -190T-200 -152L-110 -43Q-103 -54 -92 -59T-66 -64Q-46 -64 -29 -50T-7 -9L106 525H266L156 3Q146 -42 124 -80T71 -145T3 -187T-75 -202ZM150 730H310L279 585H119L150 730Z" />
<glyph unicode="k" glyph-name="k" horiz-adv-x="570" d="M145 730H304L233 394Q273 458 324 494T436 531Q491 531 519 500T548 413Q548 347 512 291T406 198L495 0H325L237 227Q316 242 360 275T404 350Q404 372 392 383T360 395Q339 395 316 383T271 349T231
300T200 239L149 0H-10L145 730Z" />
<glyph unicode="l" glyph-name="l" horiz-adv-x="326" d="M126 -9Q69 -9 40 16T11 89Q11 99 12 109T16 131L143 730H303L187 187Q186 182 186 177T185 166Q185 127 223 127Q234 127 248 130T276 141L271 21Q239 7 199 -1T126 -9Z" />
<glyph unicode="m" glyph-name="m" horiz-adv-x="897" d="M102 525H246L227 437Q263 484 317 509T428 535Q460 535 482 527T518 506T538 474T547 433Q586 482 638 508T747 535Q781 535 804 525T840 499T859 461T865 415Q865 403 863 384T855 336L783 0H623L686
295Q688 307 689 317T691 337Q691 366 679 380T647 394Q632 394 616 387T585 368T555 338T530 301L467 0H307L370 295Q372 307 373 317T375 337Q375 366 363 380T330 394Q301 394 268 368T214 301L150 0H-10L102 525Z" />
<glyph unicode="n" glyph-name="n" horiz-adv-x="591" d="M102 525H246L227 437Q264 484 319 509T440 535Q475 535 497 525T533 499T552 460T558 414Q558 394 556 375T549 336L478 0H318L381 295Q385 315 385 335Q385 366 372 380T337 394Q308 394 272 368T214
301L150 0H-10L102 525Z" />
<glyph unicode="o" glyph-name="o" horiz-adv-x="591" d="M229 -10Q174 -10 133 7T65 55T25 124T11 209Q11 271 35 329T103 434T208 507T345 535Q399 535 440 518T508 470T549 401T563 316Q563 254 539 196T471 92T366 18T229 -10ZM258 125Q285 125 310 138T354
174T384 229T396 296Q396 343 375 371T316 399Q289 399 264 386T220 350T190 295T178 228Q178 181 199 153T258 125Z" />
<glyph unicode="p" glyph-name="p" horiz-adv-x="618" d="M101 525H241L222 440Q259 485 305 510T408 535Q450 535 484 519T541 474T577 406T590 321Q590 255 567 195T505 90T415 17T309 -10Q253 -10 217 15T168 85L104 -213H-56L101 525ZM283 125Q310 125 335
139T379 178T411 232T423 295Q423 340 399 369T333 399Q304 399 273 380T219 327L196 219Q203 179 226 152T283 125Z" />
<glyph unicode="q" glyph-name="q" horiz-adv-x="618" d="M176 -10Q137 -10 107 6T55 50T23 117T11 201Q11 270 36 331T102 437T197 508T309 535Q366 535 401 509T454 439L472 525H612L495 -25Q492 -36 492 -43Q492 -68 526 -69L497 -205Q475 -209 451 -211T409
-213Q367 -213 341 -192T314 -132Q314 -121 317 -110L358 85Q324 38 278 14T176 -10ZM267 125Q298 125 327 144T382 196L406 307Q401 346 377 372T319 399Q292 399 267 385T222 347T190 293T178 229Q178 184 201 155T267 125Z" />
<glyph unicode="r" glyph-name="r" horiz-adv-x="392" d="M102 525H249L226 419Q264 472 310 502T402 532Q421 532 425 531L395 388Q341 387 294 369T217 315L150 0H-10L102 525Z" />
<glyph unicode="s" glyph-name="s" horiz-adv-x="482" d="M187 -10Q124 -10 67 11T-26 74L51 172Q89 139 129 121T208 103Q240 103 256 116T272 153Q272 170 256 181T198 206Q157 219 128 231T79 258T51 290T42 331Q42 375 61 412T114 477T191 519T285 535Q341
535 386 519T470 461L388 365Q351 396 321 410T261 424Q234 424 216 411T198 372Q198 355 215 345T271 323Q357 298 395 269T433 190Q433 146 415 109T365 46T287 5T187 -10Z" />
<glyph unicode="t" glyph-name="t" horiz-adv-x="392" d="M163 -10Q112 -10 79 12T46 89Q46 110 50 130L108 404H45L72 525H134L170 692H330L294 525H395L369 404H268L222 185Q221 180 221 176T220 168Q220 151 229 144T254 136Q270 136 290 142T327 155V28Q291
12 248 1T163 -10Z" />
<glyph unicode="u" glyph-name="u" horiz-adv-x="606" d="M139 -10Q78 -10 47 22T16 116Q16 148 25 189L97 525H256L192 224Q187 199 187 185Q187 125 237 125Q264 125 294 142T356 201L425 525H585L512 180Q509 166 509 159Q509 136 535 135L506 0Q484 -5 468
-6T438 -8Q400 -8 376 7T352 56Q352 62 353 69T357 91Q312 39 257 15T139 -10Z" />
<glyph unicode="v" glyph-name="v" horiz-adv-x="536" d="M47 525H213L230 128Q263 183 289 231T337 326T377 421T413 525H558Q522 394 450 263T275 0H109L47 525Z" />
<glyph unicode="w" glyph-name="w" horiz-adv-x="802" d="M38 525H192L243 145Q248 151 258 169T279 209T300 248T314 273L266 525H399L417 366Q420 372 431 395T454 445T477 495T489 525H612Q585 453 556 394T484 274L501 181Q541 234 569 274T618 352T658 430T698
525H843Q794 394 710 263T510 0H405L380 184Q377 180 369 166T351 133T328 92T304 51T285 18T274 0H136L38 525Z" />
<glyph unicode="x" glyph-name="x" horiz-adv-x="522" d="M166 262L52 525H214L268 377L273 358L285 377L405 525H566L339 262L458 0H295L237 147L232 166L220 147L100 0H-64L166 262Z" />
<glyph unicode="y" glyph-name="y" horiz-adv-x="531" d="M-50 -111Q-20 -110 1 -107T38 -96T67 -78T94 -48L123 -11L45 525H208L237 137L271 193Q322 275 353 354T404 525H558Q544 477 529 435T491 346T435 241T352 103L272 -26Q237 -83 203 -122T133 -185T57
-220T-31 -231L-50 -111Z" />
<glyph unicode="z" glyph-name="z" horiz-adv-x="471" d="M-19 96L293 414H61L85 525H486L465 429L153 111H405L381 0H-40L-19 96Z" />
<glyph unicode="{" glyph-name="braceleft" horiz-adv-x="332" d="M301 613L263 432Q258 409 244 392T211 360Q220 349 227 336T234 305Q234 298 232 288L192 96H244L217 -31H43Q38 -31 32 -27T26 -11Q26 -5 27 -1L77 234Q78 239 78 242T79 250Q79 273 67 287T39
306L62 416Q72 416 83 422T104 439T121 461T131 486L178 710Q182 728 192 734T207 740H381L353 613H301Z" />
<glyph unicode="|" glyph-name="bar" horiz-adv-x="342" d="M108 -130V775H243V-130H108Z" />
<glyph unicode="}" glyph-name="braceright" horiz-adv-x="335" d="M115 613L142 740H315Q320 740 326 736T332 720Q332 714 331 710L283 486Q282 482 282 479T281 472Q281 450 293 433T322 416L298 306Q278 301 257 282T230 234L180 -1Q176 -19 167 -25T151 -31H-22L5
96H57L98 288Q103 311 117 328T149 360Q141 371 134 384T127 414Q127 419 127 423T129 432L168 613H115Z" />
<glyph unicode="~" glyph-name="asciitilde" horiz-adv-x="565" d="M37 222Q37 232 45 256T73 305T121 348T194 367Q222 367 245 359T288 341T328 323T371 314Q392 314 406 321T428 338T439 355T442 365H528Q528 359 519 336T491 287T442 242T366 222Q339 222
317 230T274 247T233 265T190 273Q168 273 155 266T135 249T126 231T124 222H37V222Z" />
<glyph unicode="&#xa0;" glyph-name="uni00A0" horiz-adv-x="230" />
<glyph unicode="&#xa1;" glyph-name="exclamdown" horiz-adv-x="309" d="M262 429L169 -6H9L102 429H262ZM321 711L286 545H126L161 711H321Z" />
<glyph unicode="&#xa2;" glyph-name="cent" horiz-adv-x="584" d="M178 -120L202 -9Q160 -6 128 14T73 64T38 133T26 212Q26 266 45 319T102 415T194 490T317 533L341 645H410L386 533Q450 531 499 497T569 396L403 349Q398 368 385 380T357 394L300 129Q320 135
338 147T367 177L513 129Q490 94 458 68T393 25T327 -1T271 -10L247 -120H178ZM192 225Q192 196 202 172T233 137L286 387Q266 380 249 363T219 324T199 276T192 225Z" />
<glyph unicode="&#xa3;" glyph-name="sterling" horiz-adv-x="544" d="M75 384H134Q129 413 124 442T118 500Q118 545 139 584T194 652T274 698T368 715Q429 715 478 688T556 610L454 512Q437 544 405 565T340 586Q305 586 282 561T258 498Q258 473 265 445T277
384H456L430 265H273Q262 230 238 197T169 123Q193 131 211 134T246 137Q278 137 307 129T368 121Q385 121 400 124T435 135L449 17Q424 3 392 -6T331 -15Q309 -15 287 -10T243 0T199 11T152 16Q126 16 89 9T16 -9L7 105Q54 137 87 178T134 265H51L75 384Z" />
<glyph unicode="&#xa4;" glyph-name="currency" horiz-adv-x="580" d="M194 501Q216 513 242 520T299 527Q329 527 354 520T402 502L471 572L533 510L467 444Q498 397 498 338Q498 277 466 230L533 164L476 107L404 174Q360 149 299 149Q267 149 241 156T192 175L120
107L63 164L130 232Q116 255 108 282T100 338Q100 396 129 442L63 510L125 572L194 501ZM215 337Q215 296 239 271T299 246Q335 246 359 271T383 338Q383 380 359 404T299 429Q263 429 239 404T215 337Z" />
<glyph unicode="&#xa5;" glyph-name="yen" horiz-adv-x="700" d="M540 416H604L582 313H465L414 242L407 211H561L540 108H385L362 0H199L221 108H69L91 211H244L251 244L231 313H113L135 416H201L115 710H293L362 384L572 710H751L540 416Z" />
<glyph unicode="&#xa6;" glyph-name="brokenbar" horiz-adv-x="334" d="M240 260V-130H104V260H240ZM240 775V385H104V775H240Z" />
<glyph unicode="&#xa7;" glyph-name="section" horiz-adv-x="524" d="M438 223Q443 214 446 199T450 163Q450 94 422 46T353 -31T264 -74T178 -88Q139 -88 107 -76T51 -47T11 -12T-12 21L111 119Q131 89 154 77T203 64Q232 64 254 80T277 125Q277 145 263 150T233
157Q147 164 106 204T65 306Q65 329 69 346T78 375T89 396T98 411Q93 420 88 440T83 486Q83 530 104 571T160 644T241 695T337 715Q381 715 413 701T466 667T502 623T524 581L389 523Q381 545 364 559T318 573Q288 573 268 556T247 510Q247 488 261 482T295 474Q327
473 359 465T417 441T459 398T475 332Q475 313 471 296T460 264T448 239T438 223ZM218 308Q218 291 227 283T249 272T275 267T298 262Q307 269 313 281T319 306Q319 329 304 337T274 346Q262 346 251 348T238 353Q230 346 224 334T218 308Z" />
<glyph unicode="&#xa8;" glyph-name="dieresis" horiz-adv-x="497" d="M73 593L101 722H233L205 593H73ZM278 593L306 722H437L410 593H278Z" />
<glyph unicode="&#xa9;" glyph-name="copyright" horiz-adv-x="858" d="M437 -7Q356 -7 287 20T167 96T88 211T59 355Q59 432 87 498T166 612T286 687T437 715Q520 715 591 688T713 612T794 498T823 355Q823 277 794 211T714 97T591 21T437 -7ZM437 49Q505 49
564 71T667 134T736 230T761 354Q761 418 737 473T669 570T566 635T437 659Q369 659 312 636T212 571T145 475T121 355Q121 291 145 235T211 138T311 73T437 49ZM446 114Q386 114 338 133T256 184T204 260T186 354Q186 401 202 444T251 521T332 575T445 595Q530
595 589 558T678 460L523 412Q509 438 488 449T444 460Q402 460 376 430T350 354Q350 329 358 310T379 277T410 256T445 249Q469 249 490 261T524 297L680 250Q667 222 645 197T594 154T527 125T446 114Z" />
<glyph unicode="&#xaa;" glyph-name="ordfeminine" horiz-adv-x="429" d="M158 336Q116 336 91 362T65 430Q65 461 78 487T115 533T169 563T235 574Q279 574 303 559L306 574Q307 580 307 584T308 594Q308 636 258 636Q230 636 204 626T146 596L128 667Q203 714
285 714Q351 714 385 686T419 604Q419 586 414 561L396 472Q395 468 395 465T394 459Q394 441 416 440L395 343Q366 337 344 337Q313 337 300 348T286 383Q286 384 286 390T287 401Q227 336 158 336ZM209 419Q219 419 231 423T254 433T273 448T283 466L290 499Q280
505 267 508T242 511Q214 511 194 495T173 454Q173 439 183 429T209 419Z" />
<glyph unicode="&#xab;" glyph-name="guillemotleft" horiz-adv-x="659" d="M32 293L331 486L304 357L150 259L263 168L236 39L15 217L32 293ZM343 293L642 486L615 357L462 259L575 168L548 39L327 217L343 293Z" />
<glyph unicode="&#xac;" glyph-name="logicalnot" horiz-adv-x="602" d="M564 415L497 98H362L399 271H46L76 415H564Z" />
<glyph unicode="&#xad;" glyph-name="uni00AD" horiz-adv-x="595" d="M32 203L63 347H551L520 203H32Z" />
<glyph unicode="&#xae;" glyph-name="registered" horiz-adv-x="858" d="M439 -7Q356 -7 287 20T167 96T88 211T59 355Q59 432 87 498T166 612T286 687T439 715Q521 715 591 688T713 612T794 498T823 355Q823 277 794 211T714 97T592 21T439 -7ZM439 48Q506 48
564 71T666 134T733 231T758 353Q758 417 734 473T668 570T567 635T439 659Q370 659 312 635T213 570T148 474T124 354Q124 290 147 235T212 138T312 72T439 48ZM273 574H470Q501 574 527 561T572 527T601 480T612 426Q612 387 592 353T540 301L640 140H515L428
280H385V140H273V574ZM459 376Q478 376 490 388T502 426Q502 454 488 465T457 476H385V376H459Z" />
<glyph unicode="&#xaf;" glyph-name="overscore" horiz-adv-x="410" d="M60 620L80 717H371L350 620H60Z" />
<glyph unicode="&#xb0;" glyph-name="degree" horiz-adv-x="285" d="M183 504Q143 504 120 527T97 588Q97 614 107 638T135 682T177 712T231 724Q271 724 294 700T317 637Q317 609 307 585T278 542T236 514T183 504ZM200 579Q214 579 227 591T240 621Q240 635
233 641T214 648Q199 648 186 636T173 608Q173 596 180 588T200 579Z" />
<glyph unicode="&#xb1;" glyph-name="plusminus" horiz-adv-x="525" d="M68 16V143H434V16H68ZM435 445V318H324V197H180V318H69V445H180V566H324V445H435Z" />
<glyph unicode="&#xb2;" glyph-name="twosuperior" horiz-adv-x="414" d="M46 383Q55 425 67 456T99 511T147 553T216 587Q243 597 268 607T314 628T347 653T360 689Q360 709 343 718T295 727Q257 727 224 713T170 681L126 749Q138 761 157 773T203 795T260 811T328
818Q397 818 432 790T467 708Q467 670 453 642T417 595T368 563T313 542Q228 516 218 474H405L385 383H46Z" />
<glyph unicode="&#xb3;" glyph-name="threesuperior" horiz-adv-x="399" d="M203 376Q147 376 113 395T56 452L120 522Q123 517 128 508T145 491T175 476T222 470Q240 470 257 473T287 482T309 497T318 518Q318 543 284 553T187 563H164L182 648H204Q264 648 303
660T342 698Q342 708 336 714T321 725T301 730T280 732Q243 732 215 719T164 685L121 760Q136 774 156 785T200 803T247 814T295 818Q364 818 404 789T444 714Q444 673 412 646T331 611Q371 604 391 579T411 518Q411 482 392 455T343 411T276 385T203 376Z" />
<glyph unicode="&#xb4;" glyph-name="acute" horiz-adv-x="259" d="M125 586L19 600L96 730H240L125 586Z" />
<glyph unicode="&#xb5;" glyph-name="mu" horiz-adv-x="650" d="M113 525H273L209 224Q204 199 204 184Q204 125 257 125Q281 125 311 142T373 201L441 525H601L528 180Q527 175 527 171T526 161Q526 147 533 142T559 135L530 0Q505 -5 487 -6T455 -8Q371 -8 371
56Q371 58 371 69T374 91Q365 76 348 59T310 26T264 1T218 -10Q190 -10 176 3T159 38L116 -213H-44L113 525Z" />
<glyph unicode="&#xb6;" glyph-name="paragraph" horiz-adv-x="657" d="M61 387Q61 460 84 520T150 622T255 687T393 710H700L675 591H608L465 -80H330L389 199H353L294 -80H158L218 199Q181 199 152 212T103 251T72 310T61 387ZM195 399Q195 364 208 342T243
317L302 591Q281 589 262 573T228 530T204 469T195 399ZM474 591H436L378 317H415L474 591Z" />
<glyph unicode="&#xb7;" glyph-name="middot" horiz-adv-x="238" d="M40 240L75 406H206L171 240H40Z" />
<glyph unicode="&#xb8;" glyph-name="cedilla" horiz-adv-x="330" d="M22 -127Q31 -134 54 -140T104 -147Q130 -147 147 -139T164 -109Q164 -95 152 -89T119 -83Q99 -83 76 -87T41 -94L128 32L184 14L139 -38Q151 -35 167 -35Q196 -35 217 -49T239 -95Q239 -117
229 -136T200 -171T151 -195T81 -204Q48 -204 23 -198T-20 -183L22 -127Z" />
<glyph unicode="&#xb9;" glyph-name="onesuperior" horiz-adv-x="299" d="M315 476L295 384H64L84 476H157L208 719Q202 712 190 703T163 686T134 673T108 667L128 760Q143 760 160 769T193 788T218 808T229 818H323L250 476H315Z" />
<glyph unicode="&#xba;" glyph-name="ordmasculine" horiz-adv-x="426" d="M219 336Q183 336 156 348T111 380T84 428T75 486Q75 529 91 570T136 643T207 694T300 714Q336 714 363 702T408 670T435 622T444 564Q444 521 428 480T383 407T312 356T219 336ZM240
433Q257 433 273 442T301 467T320 504T328 549Q328 580 315 598T279 617Q262 617 246 608T218 583T199 546T191 500Q191 470 204 452T240 433Z" />
<glyph unicode="&#xbb;" glyph-name="guillemotright" horiz-adv-x="659" d="M607 217L311 39L338 168L490 259L378 357L406 486L623 293L607 217ZM296 217L0 39L27 168L179 259L67 357L94 486L312 293L296 217Z" />
<glyph unicode="&#xbc;" glyph-name="onequarter" horiz-adv-x="848" d="M615 89H409L429 180L717 431H780L727 180H787L767 89H708L689 1H597L615 89ZM638 180L668 318L516 180H638ZM103 56L440 380L754 719L812 655L485 340L160 -9L103 56ZM304 389L285 297H53L73
389H146L198 632Q191 625 179 616T152 599T123 586T97 580L117 673Q132 673 149 682T182 701T207 721T218 731H313L239 389H304Z" />
<glyph unicode="&#xbd;" glyph-name="onehalf" horiz-adv-x="881" d="M438 0Q446 42 458 73T489 127T535 169T601 204Q627 214 652 224T696 245T728 270T740 306Q740 326 724 335T678 344Q641 344 610 329T557 297L514 366Q526 378 545 390T589 412T644 428T710
435Q776 435 810 407T844 325Q844 287 831 260T797 213T750 181T696 159Q614 133 604 91H799L780 0H438ZM68 56L405 380L719 719L777 655L450 340L125 -9L68 56ZM304 389L285 297H53L73 389H146L198 632Q191 625 179 616T152 599T123 586T97 580L117 673Q132 673
149 682T182 701T207 721T218 731H313L239 389H304Z" />
<glyph unicode="&#xbe;" glyph-name="threequarters" horiz-adv-x="864" d="M193 289Q133 289 95 308T49 365L113 435Q114 431 120 423T137 405T167 390T211 383Q251 383 281 395T311 432Q311 456 277 466T180 476H157L174 561H197Q257 561 296 573T335 612Q335
621 329 627T314 637T293 643T272 645Q235 645 208 632T156 598L114 673Q129 687 149 698T192 716T240 727T290 731Q323 731 350 723T396 702T426 670T437 629Q437 587 406 560T323 524Q363 518 383 492T404 432Q404 394 385 367T336 323T269 298T193 289ZM628
89H422L442 180L730 431H793L740 180H800L780 89H721L702 1H610L628 89ZM651 180L681 318L529 180H651ZM139 56L476 380L790 719L848 655L521 340L196 -9L139 56Z" />
<glyph unicode="&#xbf;" glyph-name="questiondown" horiz-adv-x="470" d="M361 261Q356 238 350 217T331 177T300 140T253 109Q219 92 192 77T146 46T117 12T106 -28Q106 -54 122 -69T163 -84Q181 -84 196 -77T225 -59T249 -36T268 -12L356 -84Q318 -145 258
-179T129 -213Q97 -213 67 -204T14 -176T-23 -127T-38 -55Q-38 -13 -28 18T-1 74T39 116T89 150Q111 163 134 174T178 198T212 225T230 261H361ZM411 506L379 356H248L280 506H411Z" />
<glyph unicode="&#xc0;" glyph-name="Agrave" horiz-adv-x="641" d="M337 710H486L578 0H410L395 159H193L112 0H-57L337 710ZM392 272L372 523L242 272H392ZM314 917H458L480 787L369 771L314 917Z" />
<glyph unicode="&#xc1;" glyph-name="Aacute" horiz-adv-x="641" d="M337 710H486L578 0H410L395 159H193L112 0H-57L337 710ZM392 272L372 523L242 272H392ZM451 772L345 786L422 916H566L451 772Z" />
<glyph unicode="&#xc2;" glyph-name="Acircumflex" horiz-adv-x="641" d="M337 710H486L578 0H410L395 159H193L112 0H-57L337 710ZM392 272L372 523L242 272H392ZM271 808L399 916H513L595 808L506 772L439 835L345 772L271 808Z" />
<glyph unicode="&#xc3;" glyph-name="Atilde" horiz-adv-x="641" d="M337 710H486L578 0H410L395 159H193L112 0H-57L337 710ZM392 272L372 523L242 272H392ZM486 774Q464 774 449 781T422 797T397 813T369 820Q353 820 343 813T326 797T318 781T315 772H228Q230
783 241 806T273 854T320 896T382 914Q405 914 420 907T447 890T470 874T499 866Q515 866 526 873T545 890T555 907T559 916H644Q642 908 631 885T599 837T550 793T486 774Z" />
<glyph unicode="&#xc4;" glyph-name="Adieresis" horiz-adv-x="641" d="M337 710H486L578 0H410L395 159H193L112 0H-57L337 710ZM392 272L372 523L242 272H392ZM251 780L279 909H411L383 780H251ZM456 780L484 909H615L588 780H456Z" />
<glyph unicode="&#xc5;" glyph-name="Aring" horiz-adv-x="641" d="M337 710H486L578 0H410L395 159H193L112 0H-57L337 710ZM392 272L372 523L242 272H392ZM326 818Q326 866 360 891T450 916Q492 916 515 899T538 850Q538 803 504 778T415 753Q373 753 350 769T326
818ZM439 869Q421 869 408 858T394 829Q394 816 402 808T425 800Q442 800 456 811T471 841Q471 853 462 861T439 869Z" />
<glyph unicode="&#xc6;" glyph-name="AE" horiz-adv-x="932" d="M484 710H978L947 566H660L632 433H867L837 290H602L571 144H865L835 0H377L411 159H210L94 0H-80L484 710ZM429 303L476 527L310 303H429Z" />
<glyph unicode="&#xc7;" glyph-name="Ccedilla" horiz-adv-x="660" d="M190 -127Q199 -134 222 -140T272 -147Q298 -147 315 -139T332 -109Q332 -95 320 -89T287 -83Q267 -83 244 -87T209 -94L270 -5Q213 0 169 27T94 96T48 190T32 297Q32 346 46 396T87 492T152
579T237 649T339 696T455 714Q551 714 612 671T693 559L548 471Q543 499 531 517T500 547T461 563T420 568Q368 568 327 544T258 481T214 396T199 307Q199 273 207 243T232 190T274 154T331 140Q352 140 374 145T419 162T462 192T498 238L616 159Q595 124 564 96T495
48T417 14T337 -3L307 -38Q319 -35 335 -35Q364 -35 385 -49T407 -95Q407 -117 397 -136T368 -171T319 -195T249 -204Q216 -204 191 -198T148 -183L190 -127Z" />
<glyph unicode="&#xc8;" glyph-name="Egrave" horiz-adv-x="576" d="M155 710H622L591 566H288L259 428H519L491 295H231L198 144H510L480 0H4L155 710ZM310 917H454L476 787L365 771L310 917Z" />
<glyph unicode="&#xc9;" glyph-name="Eacute" horiz-adv-x="576" d="M431 772L325 786L402 916H546L431 772ZM155 710H622L591 566H288L259 428H519L491 295H231L198 144H510L480 0H4L155 710Z" />
<glyph unicode="&#xca;" glyph-name="Ecircumflex" horiz-adv-x="576" d="M242 808L370 916H484L566 808L477 772L410 835L316 772L242 808ZM155 710H622L591 566H288L259 428H519L491 295H231L198 144H510L480 0H4L155 710Z" />
<glyph unicode="&#xcb;" glyph-name="Edieresis" horiz-adv-x="576" d="M233 780L261 909H393L365 780H233ZM438 780L466 909H597L570 780H438ZM155 710H622L591 566H288L259 428H519L491 295H231L198 144H510L480 0H4L155 710Z" />
<glyph unicode="&#xcc;" glyph-name="Igrave" horiz-adv-x="300" d="M155 710H319L168 0H4L155 710ZM158 917H302L324 787L213 771L158 917Z" />
<glyph unicode="&#xcd;" glyph-name="Iacute" horiz-adv-x="300" d="M155 710H319L168 0H4L155 710ZM272 772L166 786L243 916H387L272 772Z" />
<glyph unicode="&#xce;" glyph-name="Icircumflex" horiz-adv-x="300" d="M155 710H319L168 0H4L155 710ZM98 808L226 916H340L422 808L333 772L266 835L172 772L98 808Z" />
<glyph unicode="&#xcf;" glyph-name="Idieresis" horiz-adv-x="300" d="M155 710H319L168 0H4L155 710ZM84 780L112 909H244L216 780H84ZM289 780L317 909H448L421 780H289Z" />
<glyph unicode="&#xd0;" glyph-name="Eth" horiz-adv-x="697" d="M57 416H96L159 710H413Q482 710 533 689T618 630T668 543T685 434Q685 340 653 261T564 123T430 33T262 0H8L71 298H32L57 416ZM292 144Q342 144 383 165T454 224T500 309T516 410Q516 480 483
523T383 566H293L260 416H379L353 298H235L202 144H292Z" />
<glyph unicode="&#xd1;" glyph-name="Ntilde" horiz-adv-x="729" d="M155 710H283L496 293L584 710H748L597 0H467L254 406L168 0H4L155 710ZM528 774Q506 774 491 781T464 797T439 813T411 820Q395 820 385 813T368 797T360 781T357 772H270Q272 783 283 806T315
854T362 896T424 914Q447 914 462 907T489 890T512 874T541 866Q557 866 568 873T587 890T597 907T601 916H686Q684 908 673 885T641 837T592 793T528 774Z" />
<glyph unicode="&#xd2;" glyph-name="Ograve" horiz-adv-x="733" d="M301 -6Q236 -6 186 18T102 84T51 179T33 291Q33 345 49 397T93 496T161 583T247 652T348 697T457 714Q521 714 571 689T654 623T705 528T723 417Q723 337 689 261T596 126T461 30T301 -6ZM333
140Q385 140 426 165T495 228T539 314T555 406Q555 439 547 468T523 519T482 555T423 568Q372 568 331 544T261 481T217 396T201 304Q201 271 209 242T233 190T274 154T333 140ZM378 917H522L544 787L433 771L378 917Z" />
<glyph unicode="&#xd3;" glyph-name="Oacute" horiz-adv-x="733" d="M505 772L399 786L476 916H620L505 772ZM301 -6Q236 -6 186 18T102 84T51 179T33 291Q33 345 49 397T93 496T161 583T247 652T348 697T457 714Q521 714 571 689T654 623T705 528T723 417Q723
337 689 261T596 126T461 30T301 -6ZM333 140Q385 140 426 165T495 228T539 314T555 406Q555 439 547 468T523 519T482 555T423 568Q372 568 331 544T261 481T217 396T201 304Q201 271 209 242T233 190T274 154T333 140Z" />
<glyph unicode="&#xd4;" glyph-name="Ocircumflex" horiz-adv-x="733" d="M316 808L444 916H558L640 808L551 772L484 835L390 772L316 808ZM301 -6Q236 -6 186 18T102 84T51 179T33 291Q33 345 49 397T93 496T161 583T247 652T348 697T457 714Q521 714 571 689T654
623T705 528T723 417Q723 337 689 261T596 126T461 30T301 -6ZM333 140Q385 140 426 165T495 228T539 314T555 406Q555 439 547 468T523 519T482 555T423 568Q372 568 331 544T261 481T217 396T201 304Q201 271 209 242T233 190T274 154T333 140Z" />
<glyph unicode="&#xd5;" glyph-name="Otilde" horiz-adv-x="733" d="M301 -6Q236 -6 186 18T102 84T51 179T33 291Q33 345 49 397T93 496T161 583T247 652T348 697T457 714Q521 714 571 689T654 623T705 528T723 417Q723 337 689 261T596 126T461 30T301 -6ZM333
140Q385 140 426 165T495 228T539 314T555 406Q555 439 547 468T523 519T482 555T423 568Q372 568 331 544T261 481T217 396T201 304Q201 271 209 242T233 190T274 154T333 140ZM535 774Q513 774 498 781T471 797T446 813T418 820Q402 820 392 813T375 797T367
781T364 772H277Q279 783 290 806T322 854T369 896T431 914Q454 914 469 907T496 890T519 874T548 866Q564 866 575 873T594 890T604 907T608 916H693Q691 908 680 885T648 837T599 793T535 774Z" />
<glyph unicode="&#xd6;" glyph-name="Odieresis" horiz-adv-x="733" d="M301 780L329 909H461L433 780H301ZM506 780L534 909H665L638 780H506ZM301 -6Q236 -6 186 18T102 84T51 179T33 291Q33 345 49 397T93 496T161 583T247 652T348 697T457 714Q521 714 571
689T654 623T705 528T723 417Q723 337 689 261T596 126T461 30T301 -6ZM333 140Q385 140 426 165T495 228T539 314T555 406Q555 439 547 468T523 519T482 555T423 568Q372 568 331 544T261 481T217 396T201 304Q201 271 209 242T233 190T274 154T333 140Z" />
<glyph unicode="&#xd7;" glyph-name="multiply" horiz-adv-x="496" d="M435 181L335 82L239 177L144 82L45 181L140 276L50 367L150 466L240 376L330 466L429 367L339 277L435 181Z" />
<glyph unicode="&#xd8;" glyph-name="Oslash" horiz-adv-x="733" d="M783 710L677 591Q700 553 711 509T723 417Q723 337 689 261T596 126T461 30T301 -6Q229 -6 173 25L150 0H-26L78 117Q55 155 44 199T33 291Q33 345 49 397T93 496T161 583T247 652T348 697T457
714Q493 714 524 706T583 683L607 710H783ZM333 140Q385 140 426 165T495 228T539 314T555 406Q555 417 554 428T551 450L283 149Q304 140 333 140ZM201 304Q201 279 205 259L472 559Q461 563 449 565T423 568Q372 568 331 544T261 481T217 396T201 304Z" />
<glyph unicode="&#xd9;" glyph-name="Ugrave" horiz-adv-x="716" d="M292 -6Q227 -6 182 12T109 63T67 140T54 236Q54 290 66 347L144 710H308L230 347Q221 303 221 266Q221 239 226 216T244 176T275 150T323 140Q361 140 391 157T443 204T480 270T504 347L581
710H745L668 347Q652 273 621 209T542 97T433 22T292 -6ZM365 917H509L531 787L420 771L365 917Z" />
<glyph unicode="&#xda;" glyph-name="Uacute" horiz-adv-x="716" d="M490 772L384 786L461 916H605L490 772ZM292 -6Q227 -6 182 12T109 63T67 140T54 236Q54 290 66 347L144 710H308L230 347Q221 303 221 266Q221 239 226 216T244 176T275 150T323 140Q361 140
391 157T443 204T480 270T504 347L581 710H745L668 347Q652 273 621 209T542 97T433 22T292 -6Z" />
<glyph unicode="&#xdb;" glyph-name="Ucircumflex" horiz-adv-x="716" d="M301 808L429 916H543L625 808L536 772L469 835L375 772L301 808ZM292 -6Q227 -6 182 12T109 63T67 140T54 236Q54 290 66 347L144 710H308L230 347Q221 303 221 266Q221 239 226 216T244
176T275 150T323 140Q361 140 391 157T443 204T480 270T504 347L581 710H745L668 347Q652 273 621 209T542 97T433 22T292 -6Z" />
<glyph unicode="&#xdc;" glyph-name="Udieresis" horiz-adv-x="716" d="M287 780L315 909H447L419 780H287ZM492 780L520 909H651L624 780H492ZM292 -6Q227 -6 182 12T109 63T67 140T54 236Q54 290 66 347L144 710H308L230 347Q221 303 221 266Q221 239 226 216T244
176T275 150T323 140Q361 140 391 157T443 204T480 270T504 347L581 710H745L668 347Q652 273 621 209T542 97T433 22T292 -6Z" />
<glyph unicode="&#xdd;" glyph-name="Yacute" horiz-adv-x="623" d="M213 244L77 710H255L324 384L535 710H713L375 242L324 0H160L213 244ZM434 772L328 786L405 916H549L434 772Z" />
<glyph unicode="&#xde;" glyph-name="Thorn" horiz-adv-x="584" d="M155 710H319L293 586H402Q444 586 476 569T532 525T567 461T579 387Q579 336 557 286T498 195T411 131T305 106H190L168 0H4L155 710ZM327 250Q342 250 357 259T385 285T405 324T413 370Q413
403 399 423T363 443H262L221 250H327Z" />
<glyph unicode="&#xdf;" glyph-name="germandbls" horiz-adv-x="542" d="M209 141Q234 141 257 148T297 168T325 202T335 249Q335 283 314 301T269 319H248L279 462H298Q315 462 327 468T347 485T359 508T363 533Q363 556 351 567T319 579Q290 579 273 556T248
497L142 0H-10L102 525Q111 566 135 600T194 660T272 700T363 714Q435 714 479 678T523 579Q523 549 514 521T489 469T454 428T415 403Q457 387 479 348T502 255Q502 182 473 133T397 53T293 9T178 -6L209 141Z" />
<glyph unicode="&#xe0;" glyph-name="agrave" horiz-adv-x="634" d="M197 -10Q153 -10 119 6T60 50T24 118T11 203Q11 269 34 329T97 435T188 508T297 535Q348 535 384 509T434 439L452 522H613L539 180Q538 173 538 169T537 159Q537 136 562 135L534 0Q511 -5
495 -6T466 -8Q427 -8 404 7T381 59Q381 69 384 87Q347 38 298 14T197 -10ZM269 125Q299 125 330 144T384 198L407 308Q402 348 377 373T320 399Q293 399 268 385T223 347T192 293T180 229Q180 184 203 155T269 125ZM223 730H367L389 600L278 584L223 730Z" />
<glyph unicode="&#xe1;" glyph-name="aacute" horiz-adv-x="634" d="M197 -10Q153 -10 119 6T60 50T24 118T11 203Q11 269 34 329T97 435T188 508T297 535Q348 535 384 509T434 439L452 522H613L539 180Q538 173 538 169T537 159Q537 136 562 135L534 0Q511 -5
495 -6T466 -8Q427 -8 404 7T381 59Q381 69 384 87Q347 38 298 14T197 -10ZM269 125Q299 125 330 144T384 198L407 308Q402 348 377 373T320 399Q293 399 268 385T223 347T192 293T180 229Q180 184 203 155T269 125ZM367 586L261 600L338 730H482L367 586Z" />
<glyph unicode="&#xe2;" glyph-name="acircumflex" horiz-adv-x="634" d="M197 -10Q153 -10 119 6T60 50T24 118T11 203Q11 269 34 329T97 435T188 508T297 535Q348 535 384 509T434 439L452 522H613L539 180Q538 173 538 169T537 159Q537 136 562 135L534 0Q511
-5 495 -6T466 -8Q427 -8 404 7T381 59Q381 69 384 87Q347 38 298 14T197 -10ZM269 125Q299 125 330 144T384 198L407 308Q402 348 377 373T320 399Q293 399 268 385T223 347T192 293T180 229Q180 184 203 155T269 125ZM173 622L301 730H415L497 622L408 586L341
649L247 586L173 622Z" />
<glyph unicode="&#xe3;" glyph-name="atilde" horiz-adv-x="634" d="M197 -10Q153 -10 119 6T60 50T24 118T11 203Q11 269 34 329T97 435T188 508T297 535Q348 535 384 509T434 439L452 522H613L539 180Q538 173 538 169T537 159Q537 136 562 135L534 0Q511 -5
495 -6T466 -8Q427 -8 404 7T381 59Q381 69 384 87Q347 38 298 14T197 -10ZM269 125Q299 125 330 144T384 198L407 308Q402 348 377 373T320 399Q293 399 268 385T223 347T192 293T180 229Q180 184 203 155T269 125ZM390 588Q368 588 353 595T326 611T301 627T273
634Q257 634 247 627T230 611T222 595T219 586H132Q134 597 145 620T177 668T224 710T286 728Q309 728 324 721T351 704T374 688T403 680Q419 680 430 687T449 704T459 721T463 730H548Q546 722 535 699T503 651T454 607T390 588Z" />
<glyph unicode="&#xe4;" glyph-name="adieresis" horiz-adv-x="634" d="M197 -10Q153 -10 119 6T60 50T24 118T11 203Q11 269 34 329T97 435T188 508T297 535Q348 535 384 509T434 439L452 522H613L539 180Q538 173 538 169T537 159Q537 136 562 135L534 0Q511
-5 495 -6T466 -8Q427 -8 404 7T381 59Q381 69 384 87Q347 38 298 14T197 -10ZM269 125Q299 125 330 144T384 198L407 308Q402 348 377 373T320 399Q293 399 268 385T223 347T192 293T180 229Q180 184 203 155T269 125ZM162 593L190 722H322L294 593H162ZM367 593L395
722H526L499 593H367Z" />
<glyph unicode="&#xe5;" glyph-name="aring" horiz-adv-x="634" d="M197 -10Q153 -10 119 6T60 50T24 118T11 203Q11 269 34 329T97 435T188 508T297 535Q348 535 384 509T434 439L452 522H613L539 180Q538 173 538 169T537 159Q537 136 562 135L534 0Q511 -5
495 -6T466 -8Q427 -8 404 7T381 59Q381 69 384 87Q347 38 298 14T197 -10ZM269 125Q299 125 330 144T384 198L407 308Q402 348 377 373T320 399Q293 399 268 385T223 347T192 293T180 229Q180 184 203 155T269 125ZM233 632Q233 680 267 705T357 730Q399 730 422
713T445 664Q445 617 411 592T322 567Q280 567 257 583T233 632ZM346 683Q328 683 315 672T301 643Q301 630 309 622T332 614Q349 614 363 625T378 655Q378 667 369 675T346 683Z" />
<glyph unicode="&#xe6;" glyph-name="ae" horiz-adv-x="898" d="M131 -10Q98 -10 72 0T27 29T-2 72T-12 128Q-12 171 8 208T62 273T144 316T244 332Q274 332 300 327T345 312Q348 326 352 339T356 365Q356 394 337 409T276 425Q235 425 195 411T109 367L83 467Q196
535 315 535Q372 535 412 519T477 471Q515 500 561 517T661 535Q715 535 756 518T824 470T865 401T879 316Q879 278 872 253T857 213H492Q491 207 491 202T490 190Q490 148 515 127T576 105Q608 105 640 122T689 168L817 130Q775 68 705 29T546 -10Q471 -10 422
18T350 95Q326 67 298 47T240 15T182 -4T131 -10ZM204 105Q219 105 236 109T270 121T301 137T324 158Q323 163 323 168T322 179Q322 190 323 202T327 228Q310 235 290 239T251 243Q230 243 211 237T176 219T153 193T144 159Q144 136 159 121T204 105ZM712 310Q713
315 713 319T713 331Q713 371 692 395T633 420Q591 420 557 390T509 310H712Z" />
<glyph unicode="&#xe7;" glyph-name="ccedilla" horiz-adv-x="548" d="M120 -127Q129 -134 152 -140T202 -147Q228 -147 245 -139T262 -109Q262 -95 250 -89T217 -83Q197 -83 174 -87T139 -94L198 -8Q151 -3 116 16T58 64T23 131T11 211Q11 272 35 330T104 434T209
507T345 535Q433 535 484 497T552 396L387 349Q368 399 315 399Q289 399 264 386T220 351T189 297T177 229Q177 182 199 154T257 125Q283 125 308 139T350 177L496 129Q458 73 398 36T262 -8L237 -38Q249 -35 265 -35Q294 -35 315 -49T337 -95Q337 -117 327 -136T298
-171T249 -195T179 -204Q146 -204 121 -198T78 -183L120 -127Z" />
<glyph unicode="&#xe8;" glyph-name="egrave" horiz-adv-x="558" d="M232 -10Q181 -10 140 6T71 52T27 122T12 212Q12 278 38 337T110 440T217 509T350 535Q441 535 492 496T544 385Q544 299 466 255T232 211Q219 211 206 211T178 212Q178 159 197 132T261 105Q297
105 327 122T377 169L503 129Q482 98 452 73T387 29T312 0T232 -10ZM324 420Q279 420 247 389T196 310H232Q320 310 355 325T390 371Q390 394 372 407T324 420ZM264 730H408L430 600L319 584L264 730Z" />
<glyph unicode="&#xe9;" glyph-name="eacute" horiz-adv-x="558" d="M385 586L279 600L356 730H500L385 586ZM232 -10Q181 -10 140 6T71 52T27 122T12 212Q12 278 38 337T110 440T217 509T350 535Q441 535 492 496T544 385Q544 299 466 255T232 211Q219 211 206
211T178 212Q178 159 197 132T261 105Q297 105 327 122T377 169L503 129Q482 98 452 73T387 29T312 0T232 -10ZM324 420Q279 420 247 389T196 310H232Q320 310 355 325T390 371Q390 394 372 407T324 420Z" />
<glyph unicode="&#xea;" glyph-name="ecircumflex" horiz-adv-x="558" d="M209 622L337 730H451L533 622L444 586L377 649L283 586L209 622ZM232 -10Q181 -10 140 6T71 52T27 122T12 212Q12 278 38 337T110 440T217 509T350 535Q441 535 492 496T544 385Q544 299
466 255T232 211Q219 211 206 211T178 212Q178 159 197 132T261 105Q297 105 327 122T377 169L503 129Q482 98 452 73T387 29T312 0T232 -10ZM324 420Q279 420 247 389T196 310H232Q320 310 355 325T390 371Q390 394 372 407T324 420Z" />
<glyph unicode="&#xeb;" glyph-name="edieresis" horiz-adv-x="558" d="M193 593L221 722H353L325 593H193ZM398 593L426 722H557L530 593H398ZM232 -10Q181 -10 140 6T71 52T27 122T12 212Q12 278 38 337T110 440T217 509T350 535Q441 535 492 496T544 385Q544
299 466 255T232 211Q219 211 206 211T178 212Q178 159 197 132T261 105Q297 105 327 122T377 169L503 129Q482 98 452 73T387 29T312 0T232 -10ZM324 420Q279 420 247 389T196 310H232Q320 310 355 325T390 371Q390 394 372 407T324 420Z" />
<glyph unicode="&#xec;" glyph-name="igrave" horiz-adv-x="268" d="M102 525H262L150 0H-10L102 525ZM98 730H242L264 600L153 584L98 730Z" />
<glyph unicode="&#xed;" glyph-name="iacute" horiz-adv-x="268" d="M228 586L122 600L199 730H343L228 586ZM102 525H262L150 0H-10L102 525Z" />
<glyph unicode="&#xee;" glyph-name="icircumflex" horiz-adv-x="268" d="M46 622L174 730H288L370 622L281 586L214 649L120 586L46 622ZM102 525H262L150 0H-10L102 525Z" />
<glyph unicode="&#xef;" glyph-name="idieresis" horiz-adv-x="268" d="M27 593L55 722H187L159 593H27ZM232 593L260 722H391L364 593H232ZM102 525H262L150 0H-10L102 525Z" />
<glyph unicode="&#xf0;" glyph-name="eth" horiz-adv-x="597" d="M593 651L516 613Q545 561 559 500T574 377Q574 289 548 218T476 96T367 18T229 -10Q178 -10 138 5T68 46T24 110T8 191Q8 248 32 299T95 388T186 449T292 472Q334 472 369 455T424 408Q423 425
422 441T417 472Q412 495 404 516T385 558L301 516L269 577L347 616Q322 646 289 674T211 730H408Q428 719 445 704T477 670L561 712L593 651ZM175 212Q175 174 197 150T259 125Q286 125 310 135T351 164T379 206T390 258Q390 296 368 320T306 344Q279 344 255
334T214 306T186 264T175 212Z" />
<glyph unicode="&#xf1;" glyph-name="ntilde" horiz-adv-x="591" d="M102 525H246L227 437Q264 484 319 509T440 535Q475 535 497 525T533 499T552 460T558 414Q558 394 556 375T549 336L478 0H318L381 295Q385 315 385 335Q385 366 372 380T337 394Q308 394 272
368T214 301L150 0H-10L102 525ZM417 588Q395 588 380 595T353 611T328 627T300 634Q284 634 274 627T257 611T249 595T246 586H159Q161 597 172 620T204 668T251 710T313 728Q336 728 351 721T378 704T401 688T430 680Q446 680 457 687T476 704T486 721T490 730H575Q573
722 562 699T530 651T481 607T417 588Z" />
<glyph unicode="&#xf2;" glyph-name="ograve" horiz-adv-x="591" d="M229 -10Q174 -10 133 7T65 55T25 124T11 209Q11 271 35 329T103 434T208 507T345 535Q399 535 440 518T508 470T549 401T563 316Q563 254 539 196T471 92T366 18T229 -10ZM258 125Q285 125
310 138T354 174T384 229T396 296Q396 343 375 371T316 399Q289 399 264 386T220 350T190 295T178 228Q178 181 199 153T258 125ZM272 730H416L438 600L327 584L272 730Z" />
<glyph unicode="&#xf3;" glyph-name="oacute" horiz-adv-x="591" d="M395 586L289 600L366 730H510L395 586ZM229 -10Q174 -10 133 7T65 55T25 124T11 209Q11 271 35 329T103 434T208 507T345 535Q399 535 440 518T508 470T549 401T563 316Q563 254 539 196T471
92T366 18T229 -10ZM258 125Q285 125 310 138T354 174T384 229T396 296Q396 343 375 371T316 399Q289 399 264 386T220 350T190 295T178 228Q178 181 199 153T258 125Z" />
<glyph unicode="&#xf4;" glyph-name="ocircumflex" horiz-adv-x="591" d="M209 622L337 730H451L533 622L444 586L377 649L283 586L209 622ZM229 -10Q174 -10 133 7T65 55T25 124T11 209Q11 271 35 329T103 434T208 507T345 535Q399 535 440 518T508 470T549 401T563
316Q563 254 539 196T471 92T366 18T229 -10ZM258 125Q285 125 310 138T354 174T384 229T396 296Q396 343 375 371T316 399Q289 399 264 386T220 350T190 295T178 228Q178 181 199 153T258 125Z" />
<glyph unicode="&#xf5;" glyph-name="otilde" horiz-adv-x="591" d="M229 -10Q174 -10 133 7T65 55T25 124T11 209Q11 271 35 329T103 434T208 507T345 535Q399 535 440 518T508 470T549 401T563 316Q563 254 539 196T471 92T366 18T229 -10ZM258 125Q285 125
310 138T354 174T384 229T396 296Q396 343 375 371T316 399Q289 399 264 386T220 350T190 295T178 228Q178 181 199 153T258 125ZM422 588Q400 588 385 595T358 611T333 627T305 634Q289 634 279 627T262 611T254 595T251 586H164Q166 597 177 620T209 668T256
710T318 728Q341 728 356 721T383 704T406 688T435 680Q451 680 462 687T481 704T491 721T495 730H580Q578 722 567 699T535 651T486 607T422 588Z" />
<glyph unicode="&#xf6;" glyph-name="odieresis" horiz-adv-x="591" d="M194 593L222 722H354L326 593H194ZM399 593L427 722H558L531 593H399ZM229 -10Q174 -10 133 7T65 55T25 124T11 209Q11 271 35 329T103 434T208 507T345 535Q399 535 440 518T508 470T549
401T563 316Q563 254 539 196T471 92T366 18T229 -10ZM258 125Q285 125 310 138T354 174T384 229T396 296Q396 343 375 371T316 399Q289 399 264 386T220 350T190 295T178 228Q178 181 199 153T258 125Z" />
<glyph unicode="&#xf7;" glyph-name="divide" horiz-adv-x="513" d="M190 426V569H325V426H190ZM190 38V181H325V38H190ZM55 240V367H459V240H55Z" />
<glyph unicode="&#xf8;" glyph-name="oslash" horiz-adv-x="591" d="M51 73Q31 101 21 136T11 209Q11 271 35 329T103 434T208 507T345 535Q387 535 419 525T478 496L514 530H601L521 455Q542 426 552 391T563 316Q563 254 539 196T471 92T366 18T229 -10Q186
-10 152 0T92 31L53 -5H-33L51 73ZM258 125Q285 125 310 138T354 174T385 229T397 296Q397 316 392 334L206 145Q228 125 258 125ZM178 228Q178 210 181 194L364 381Q344 399 316 399Q289 399 264 386T220 350T190 295T178 228Z" />
<glyph unicode="&#xf9;" glyph-name="ugrave" horiz-adv-x="606" d="M139 -10Q78 -10 47 22T16 116Q16 148 25 189L97 525H256L192 224Q187 199 187 185Q187 125 237 125Q264 125 294 142T356 201L425 525H585L512 180Q509 166 509 159Q509 136 535 135L506 0Q484
-5 468 -6T438 -8Q400 -8 376 7T352 56Q352 62 353 69T357 91Q312 39 257 15T139 -10ZM258 730H402L424 600L313 584L258 730Z" />
<glyph unicode="&#xfa;" glyph-name="uacute" horiz-adv-x="606" d="M378 586L272 600L349 730H493L378 586ZM139 -10Q78 -10 47 22T16 116Q16 148 25 189L97 525H256L192 224Q187 199 187 185Q187 125 237 125Q264 125 294 142T356 201L425 525H585L512 180Q509
166 509 159Q509 136 535 135L506 0Q484 -5 468 -6T438 -8Q400 -8 376 7T352 56Q352 62 353 69T357 91Q312 39 257 15T139 -10Z" />
<glyph unicode="&#xfb;" glyph-name="ucircumflex" horiz-adv-x="606" d="M203 622L331 730H445L527 622L438 586L371 649L277 586L203 622ZM139 -10Q78 -10 47 22T16 116Q16 148 25 189L97 525H256L192 224Q187 199 187 185Q187 125 237 125Q264 125 294 142T356
201L425 525H585L512 180Q509 166 509 159Q509 136 535 135L506 0Q484 -5 468 -6T438 -8Q400 -8 376 7T352 56Q352 62 353 69T357 91Q312 39 257 15T139 -10Z" />
<glyph unicode="&#xfc;" glyph-name="udieresis" horiz-adv-x="606" d="M181 593L209 722H341L313 593H181ZM386 593L414 722H545L518 593H386ZM139 -10Q78 -10 47 22T16 116Q16 148 25 189L97 525H256L192 224Q187 199 187 185Q187 125 237 125Q264 125 294 142T356
201L425 525H585L512 180Q509 166 509 159Q509 136 535 135L506 0Q484 -5 468 -6T438 -8Q400 -8 376 7T352 56Q352 62 353 69T357 91Q312 39 257 15T139 -10Z" />
<glyph unicode="&#xfd;" glyph-name="yacute" horiz-adv-x="531" d="M-50 -111Q-20 -110 1 -107T38 -96T67 -78T94 -48L123 -11L45 525H208L237 137L271 193Q322 275 353 354T404 525H558Q544 477 529 435T491 346T435 241T352 103L272 -26Q237 -83 203 -122T133
-185T57 -220T-31 -231L-50 -111ZM349 586L243 600L320 730H464L349 586Z" />
<glyph unicode="&#xfe;" glyph-name="thorn" horiz-adv-x="576" d="M140 710H305Q294 660 286 622T272 557Q265 526 261 503Q274 520 297 530T355 541Q403 541 439 523T500 474T537 404T550 322Q550 263 527 202T462 89T363 6T236 -27Q195 -27 178 -16T155 8Q149
-21 142 -55Q136 -84 128 -124T109 -213H-56L140 710ZM260 116Q289 116 312 131T351 172T376 229T385 295Q385 341 368 369T316 398Q288 398 266 380T224 332L191 177Q191 175 191 174T190 169Q190 161 194 152T207 135T229 122T260 116Z" />
<glyph unicode="&#xff;" glyph-name="ydieresis" horiz-adv-x="531" d="M-50 -111Q-20 -110 1 -107T38 -96T67 -78T94 -48L123 -11L45 525H208L237 137L271 193Q322 275 353 354T404 525H558Q544 477 529 435T491 346T435 241T352 103L272 -26Q237 -83 203 -122T133
-185T57 -220T-31 -231L-50 -111ZM155 593L183 722H315L287 593H155ZM360 593L388 722H519L492 593H360Z" />
<glyph unicode="&#x2013;" glyph-name="endash" horiz-adv-x="595" d="M32 203L63 347H551L520 203H32Z" />
<glyph unicode="&#x2014;" glyph-name="emdash" horiz-adv-x="900" d="M32 203L63 347H856L825 203H32Z" />
<glyph unicode="&#x2018;" glyph-name="quoteleft" horiz-adv-x="267" d="M285 730L235 604H280L249 457H85L116 607L180 730H285Z" />
<glyph unicode="&#x2019;" glyph-name="quoteright" horiz-adv-x="256" d="M109 501L159 627H114L145 774H309L278 624L214 501H109Z" />
<glyph unicode="&#x201a;" glyph-name="quotesinglbase" horiz-adv-x="273" d="M-17 -140L36 0H-9L26 163H190L155 -4L88 -140H-17Z" />
<glyph unicode="&#x201c;" glyph-name="quotedblleft" horiz-adv-x="468" d="M285 730L235 604H280L249 457H85L116 607L180 730H285ZM486 730L436 604H481L450 457H286L317 607L381 730H486Z" />
<glyph unicode="&#x201d;" glyph-name="quotedblright" horiz-adv-x="563" d="M310 501L360 627H315L346 774H510L479 624L415 501H310ZM109 501L159 627H114L145 774H309L278 624L214 501H109Z" />
<glyph unicode="&#x201e;" glyph-name="quotedblbase" horiz-adv-x="478" d="M-17 -140L36 0H-9L26 163H190L155 -4L88 -140H-17ZM188 -140L242 0H196L231 163H395L360 -4L293 -140H188Z" />
<glyph unicode="&#x2022;" glyph-name="bullet" horiz-adv-x="358" d="M298 371Q298 345 287 322T257 280T214 252T165 241Q127 241 104 267T80 332Q80 358 91 381T121 422T163 450T212 461Q251 461 274 435T298 371Z" />
<glyph unicode="&#x2039;" glyph-name="guilsinglleft" horiz-adv-x="347" d="M32 293L331 486L304 357L150 259L263 168L236 39L15 217L32 293Z" />
<glyph unicode="&#x203a;" glyph-name="guilsinglright" horiz-adv-x="347" d="M296 217L0 39L27 168L179 259L67 357L94 486L312 293L296 217Z" />
</font>
</defs>
</svg>
